Most viewed

Manual for ford expedition 2003

Based on throttle position and wheel slip, a pulse width modulated (PWM) signal is transmitted to the transfer case clutch when a predetermined slip-threshold is exceeded.Filter your search criteria!Pdf.8Mb Download haynes manual honda civic 2006 Ford Focus Service Parts Guide PDF.You might be interested in these similar years


Read more

Game ps1 grand turismo iso

Genre: Racing/Driving, system: Sony Playstation, downloads: 1,559,277, rating: (4.90/5, 3,403 votes).Scus-94194 ) CRC-32 is verified by Redump database.OverviewPolyphony Digital's seminal racing simulator for the Playstation.IGN:.5 out of 1095, gameSpot:.6 out of 1086, gRAN turismo.Report Issue, related Games: share, facebook, whatsapp, reddit, post navigation.10 10 2 Loading.Gran Turismo (USA)


Read more

Games fogo e agua

Joga como esses dois personagens e tenta recolher todos os diamantes.Fogo e Água 1: em The Forest Temple.Teleport across each area to gather all of the gems in record time!In the crystal temple, you will experiment with special portals.Ice Fire Ball Bola: Nascido Juntos.Carregando conteúdo Conteúdo não disponível


Read more

The rook (the patrick bowers files vol.2).pdf


Steven James Author (2008 the Knight, the Patrick Bowers Files (Series book.
Read mode : Secure, utilize accurate stream : Yes, defeat audio cache : Yes.Patrick Rondat - Rape of photography for beginners issue 39 2014 uk pdf The Earth (Remaster 2002).Additional command line options : -8 -V -T "artista" -T "titlet" -T "albumg" -T "datey" -T "tracknumbern" -T "genrem" -T "commente" s -o.Exact Audio Copy.99 prebeta 5 from.Wav Pre-gap length 0:00:01.98 Peak level.6 true last logon 2.8 crack Track quality 100.0 Test CRC BF113165 Copy CRC BF113165 Cannot be verified as accurate (confidence 1) B5F46366, AccurateRip returned BB50800A Copy OK Track 7 Filename Z:mntdataflac01-rippedPatrick Rondat Rape of the Earth07 - Rape of the Earth.Steven James Author (2009 the Bishop, the Patrick Bowers Files (Series book.Selected bitrate : 768 kBit/s, quality : High, add ID3 tag :.The Rook, the Patrick Bowers Files (Series book.
Wav" wave track 01 audio title "Ultimate Dreams" performer "Patrick Rondat" index 01 00:00:00 track 02 audio title "Mindscape" performer "Patrick Rondat" index 00 04:50:45 file "02 - Mindscape.
Click here, filter, imprint, subjects, format, the Pawn.
Delete leading and trailing silent blocks :.
Wav" wave index 01 00:00:00 track 05 audio title "Burn Out" performer "Patrick Rondat" index 00 07:30:73 file "05 - Burn Out.Steven James Author (2014).EAC extraction logfile from.Wav Pre-gap length 0:00:01.98 Peak level.6 Track quality 100.0 Test CRC 42747BA8 Copy CRC 42747BA8 Cannot be verified as accurate (confidence 1) E3C59017, AccurateRip returned C3875B4D Copy OK Track 4 Filename Z:mntdataflac01-rippedPatrick Rondat Rape of the Earth04 - The Last Whale.Null samples used in CRC calculations : Yes.Wav Pre-gap length 0:00:01.98 Peak level.6 Track quality 100.0 Test CRC 357fada7 Copy CRC 357fada7 Cannot be verified as accurate (confidence 1) 67635F9F, AccurateRip returned 63EF0A19 Copy OK Track 6 Filename Z:mntdataflac01-rippedPatrick Rondat Rape of the Earth06 - Nuages.Used interface : Installed external aspi interface.Wav" wave index 01 00:00:00 track 09 audio title "World of Silence" performer "Patrick Rondat" index 00 06:04:08 file "09 - World of Silence.Wav" wave index 01 00:00:00 track 03 audio title "Barbarians at the Gates" performer "Patrick Rondat" index 00 04:50:09 file "03 - Barbarians at the Gates.Steven James Author (2012 the King, the Patrick Bowers Files (Series book.Read offset correction : 48, overread into Lead-In and Lead-Out :.Track 1 Filename Z:mntdataflac01-rippedPatrick Rondat Rape of the Earth01 - Ultimate Dreams.Wav Pre-gap length 0:00:01.98 Peak level.6 Track quality 100.0 Test CRC 9DD00635 Copy CRC 9DD00635 Cannot be verified as accurate (confidence 1) F38FB513, AccurateRip returned 7224F4E3 Copy OK Track 9 Filename Z:mntdataflac01-rippedPatrick Rondat Rape of the Earth09 - World of Silence.Used output format : User Defined Encoder.



Now, Bowers is caught up in trying to stop one of the most deadly attacks ever planned on American soil.
Wav Pre-gap length 0:00:01.98 Peak level.6 Track quality 100.0 Test CRC 029A217B Copy CRC 029A217B Cannot be verified as accurate (confidence 1) ddca438E, AccurateRip returned C3DF0FDA Copy OK Track 3 Filename Z:mntdataflac01-rippedPatrick Rondat Rape of the Earth03 - Barbarians at the Gates.


Sitemap